#TITLE:你的香气;
#SUBTITLE:;
#ARTIST:郑仁浩;
#TITLETRANSLIT:;
#SUBTITLETRANSLIT:;
#ARTISTTRANSLIT:;
#CREDIT:;
#BANNER:e-logo.jpg;
#BACKGROUND:e.jpg;
#LYRICSPATH:;
#CDTITLE:Lan.png;
#MUSIC:e.mp3;
#OFFSET:-0.020;
#SAMPLESTART:100.000;
#SAMPLELENGTH:12.000;
#SELECTABLE:YES;
#BPMS:0.000=120.020,240.000=60.010;
#STOPS:;
#BGCHANGES:;
// cache tags:
#FIRSTBEAT:23.000;
#LASTBEAT:244.000;
#SONGFILENAME:Songs/SDO 2/e/e.sm;
#HASMUSIC:1;
#HASBANNER:1;
#MUSICLENGTH:123.811;
// end cache tags

//---------------dance-single - 标准----------------
#NOTES:
     dance-single:
     标准:
     Hard:
     7:
     0.621,0.788,1.000,0.186,0.089,356.000,146.000,23.000,0.000,16.000:


0000
0000
0000
0000
,
0000
0000
0000
0000
,
0000
0000
0000
0000
,
0000
0000
0000
0000
,
0000
0000
0000
0000
,
0000
0000
0000
1001
,
1111
0001
0101
0010
0011
0100
0110
1000
,
1001
0001
0110
0100
1010
0010
1100
1000
,
0110
0010
1100
0010
0101
0010
1010
0100
,
0110
1000
0101
0010
1100
0010
0101
0010
,
1011
0100
0110
0010
1010
0100
0101
1000
,
0110
0010
1100
0010
0101
0010
1000
0001
,
1000
0001
1100
0010
0011
0010
1010
0100
,
0110
0001
0101
0010
1010
0010
0101
0010
,
0110
0010
1001
0010
0110
0100
1100
0010
,
0101
0010
1001
0010
0110
0100
1100
0010
,
0101
0000
0101
1010
0010
0101
0010
1010
,
0100
0000
0000
0000
0100
0100
0000
0000
1001
0000
0000
0000
0101
0000
0000
0000
,
1101
0000
0101
0001
0011
0010
1001
0010
,
0101
1100
0011
1100
,
1001
0010
0110
0010
1100
0100
0101
0010
,
0110
0100
1010
0100
0011
0100
1000
0100
,
0011
0010
1100
0010
0101
0010
0110
0010
,
1010
0010
1100
0010
1000
0100
0010
0001
,
2002
0000
3003
0000
,
2000
0000
3002
0000
,
2003
0000
3000
0001
,
1111
0010
0101
0010
0110
0100
1100
0100
,
0110
1000
1010
0001
0110
0001
1010
0100
,
0011
0011
1000
0100
1000
0001
1010
0100
,
0110
0010
1100
0010
0101
0010
1100
0100
,
0100
0010
0001
1000
1000
0001
0001
0100
,
0010
0000
1000
0100
0010
0001
0110
0110
,
1001
0000
0101
0010
0110
0010
1100
0100
,
0011
0010
0110
0010
1100
0001
1011
0110
,
1010
0010
1010
0100
0110
1000
1100
0000
,
0110
0010
1100
1000
0101
0100
1001
0000
,
1100
0100
1001
0100
1010
0100
0101
1000
,
0101
0010
0110
1000
0110
0000
0101
0000
,
1100
0000
0101
0001
0100
1000
0001
0010
,
1000
0001
1000
0001
,
2000
0000
3020
0000
,
1031
0000
0000
1011
0000
0100
0001
2010
,
0101
0010
0011
0001
0101
3010
0000
0002
,
0000
0000
0000
0000
0003
1000
0001
1000
,
0001
0000
0001
0220
0000
0000
0000
0000
,
0000
0000
0330
0001
1000
0100
0010
0000
,
0001
0101
0101
0001
,
0000
0110
0000
1100
1001
0010
0110
0010
,
2002
0000
0000
0220
,
3003
0000
0000
0000
0330
0000
0100
0001
,
1110
0010
0101
0010
0110
0100
1100
0110
,
0011
0001
0110
1000
0011
1000
0011
0100
,
1001
0001
0010
1000
0010
0100
0001
0010
,
1000
0100
0010
0001
0001
0010
0100
1000
1000
0100
0010
0001
0010
0100
0010
0001
,
1000
0100
1000
0100
0010
0001
0010
0001
0010
0100
0010
0100
1000
0100
0010
0000
,
0001
0010
0100
0010
1001
0100
0010
0001
0110
0000
0001
0010
1100
1100
0000
0000
,
0220
0000
2332
0000
,
3113
0000
0000
1111
0000
0001
0010
0100
,
2222
0000
0000
0000
,
0000
0000
0000
0000
,
3333
0000
0000
0000
;
